#TITLE:Gas Gas Gas;
#SUBTITLE:;
#ARTIST:Manuel;
#TITLETRANSLIT:;
#SUBTITLETRANSLIT:;
#ARTISTTRANSLIT:;
#GENRE:;
#CREDIT:;
#BANNER:banner.png;
#BACKGROUND:;
#LYRICSPATH:;
#CDTITLE:cdtitle.png;
#MUSIC:gas.mp3;
#OFFSET:0.703;
#SAMPLESTART:58.560;
#SAMPLELENGTH:12.000;
#SELECTABLE:YES;
#BPMS:0.000=154.060;
#STOPS:;
#DELAYS:;
#TIMESIGNATURES:0.000=4=4
;
#BGCHANGES:1.500=flipped.avi=1.000=0=0=1=====,
99999=-nosongbg-=1.000=0=0=0 // don't automatically add -songbackground-
;
#KEYSOUNDS:;
#ATTACKS:;
// cache tags:
#FIRSTBEAT:42.000;
#LASTBEAT:328.667;
#SONGFILENAME:/Songs/ParaPara/Gas Gas Gas/gas.sm;
#HASMUSIC:1;
#HASBANNER:1;
#MUSICLENGTH:133.961;
// end cache tags

//---------------para-single - ----------------
#NOTES:
     para-single:
     :
     Beginner:
     7:
     0.306,0.460,0.067,0.060,0.254,270.000,9.000,8.000,0.000,0.000,0.000,0.000,-1.000,-1.000,0.306,0.460,0.067,0.060,0.254,270.000,9.000,8.000,0.000,0.000,0.000,0.000,-1.000,-1.000:
00000
00000
00000
00000
,
00000
00000
00000
00000
,
00000
00000
00000
00000
,
00000
00000
00000
00000
,
00000
00000
00000
00000
,
00000
00000
00000
00000
,
00000
00000
00000
00000
,
00000
00000
00000
00000
,
00000
00000
00000
00000
,
00000
00000
00000
00000
,
00000
00000
00000
00000
01000
00000
00000
00100
,
00000
00000
00010
00000
00010
00100
00100
00010
,
00010
00100
01000
00000
01000
00000
00000
00100
,
00000
00000
00000
00010
00000
00000
00100
01000
10000
00000
00000
00000
,
00100
00000
00010
00000
00001
00000
00000
00000
00000
00000
00000
00000
00010
00000
00000
00000
00000
00000
00000
00000
00000
00100
00000
00000
,
00000
00000
01000
00000
01000
00100
00100
01000
,
01000
00100
00010
00000
00010
00000
00000
00100
,
00000
00000
00000
01000
00000
00000
00100
00010
00001
00000
00000
00000
,
00100
01000
10000
00000
00000
00000
00001
00000
00000
10000
00000
00000
,
00100
00010
00001
01000
00100
00010
00000
00000
00000
00000
00000
00000
,
00000
00000
00010
00000
,
00000
00000
00010
00000
,
00000
00000
00001
10000
,
00000
00000
00010
00000
00100
00010
00000
00000
,
00100
00000
00000
00100
00000
00000
01000
00100
00010
00000
00000
00000
,
00010
00100
01000
00000
00000
00000
00100
00000
00000
00100
00000
00000
,
02000
03000
00001
10000
,
00100
00010
00001
01000
00100
00010
00000
00000
00000
00000
00000
00000
,
00000
00000
00010
00000
,
00000
00000
00010
00000
,
00000
00000
00001
10000
,
00000
00000
00010
00000
00100
00010
00000
00000
,
00100
00000
00000
00100
00000
00000
01000
00100
00010
00000
00000
00000
,
00010
00100
01000
00000
00000
00000
00100
00000
00000
00100
00000
00000
,
02000
00000
03000
00000
01000
00000
00000
00100
,
00000
00000
00010
00000
00010
00100
00100
00010
,
00010
00100
01000
00000
01000
00000
00000
00100
,
00000
00000
00000
00010
00000
00000
00100
01000
10000
00000
00000
00000
,
00100
00000
00010
00000
00001
00000
00000
00000
00000
00000
00000
00000
00010
00000
00000
00000
00000
00000
00000
00000
00000
00100
00000
00000
,
00000
00000
01000
00000
01000
00100
00100
01000
,
01000
00100
00010
00000
00010
00000
00000
00100
,
00000
00000
00000
01000
00000
00000
00100
00010
00001
00000
00000
00000
,
00100
01000
10000
00000
00000
00000
01010
00000
00000
00000
00000
00000
,
00000
00000
00000
00000
,
01000
00000
00000
00000
00000
00000
01000
00100
00010
00001
00000
00000
,
00010
00000
00100
00000
01000
00000
10000
00000
00000
00000
00000
00000
00000
00000
00000
00000
00000
00000
02020
00000
00000
03030
00000
00000
,
00000
00000
01010
00000
,
00000
00000
00000
00000
,
01000
00000
00000
00000
00000
00000
01000
00100
00010
00001
00000
00000
,
00010
00100
01000
10000
00000
00000
00000
00000
00000
00010
00000
00000
,
00000
01000
00010
00000
,
00010
00000
01000
00000
,
01000
00000
00010
00010
,
01000
01000
00020
01030
,
00000
01010
00010
00000
,
01000
00000
00000
00000
01010
00100
01010
00000
,
01010
00000
00000
01010
00000
00000
01000
00100
00010
00001
00000
00000
,
00010
00100
01000
10000
00000
00000
00020
00000
00000
01030
00000
00000
,
00000
01010
00001
10000
,
00100
00010
00001
01000
00100
00010
00000
00000
00000
00000
00000
00000
,
00000
00000
00010
00000
,
00000
00000
00010
00000
,
00000
00000
00001
10000
,
00000
00000
00010
00000
00100
00010
00000
00000
,
00100
00000
00000
00100
00000
00000
01000
00100
00010
00000
00000
00000
,
00010
00100
01000
00000
00000
00000
00100
00000
00000
00100
00000
00000
,
02000
03000
00001
10000
,
00100
00010
00001
01000
00100
00010
00000
00000
00000
00000
00000
00000
,
00000
00000
00010
00000
,
00000
00000
00010
00000
,
00000
00000
00001
10000
,
00000
00000
00010
00000
00100
00010
00000
00000
,
00100
00000
00000
00100
00000
00000
01000
00100
00010
00000
00000
00000
,
00010
00100
01000
00000
00000
00000
00100
00000
00000
00100
00000
00000
,
02000
00000
03000
00000
01000
00000
00000
00100
,
00000
00000
00010
00000
00010
00100
00100
00010
,
00010
00100
01000
00000
01000
00000
00000
00100
,
00000
00000
00000
00010
00000
00000
00100
01000
10000
00000
00000
00000
,
00100
00000
00010
00000
00001
00000
00000
00000
00000
00000
00000
00000
00010
00000
00000
00000
00000
00000
00000
00000
00000
00100
00000
00000
,
00000
00000
01000
00000
01000
00100
00100
01000
,
01000
00100
00010
00000
00010
00000
00000
00100
,
00000
00000
00000
01000
00000
00000
00100
00010
00001
00000
00000
00000
,
00100
01000
10000
00000
00000
00000
00000
00000
00000
00000
00000
00000
;
